&title=[宴] ウサテイ
&artist=あまね+ビートまりお(COOL&CREATE)
&wholebpm=190
&demo_seek=12.2
&demo_len=11.7
&lv_7=傾
&inote_7=(190.0){1},,
{8}2,2h[8:3],,,3,3h[8:3],,,
{8}4,4h[8:3],,,5,6-3[8:1],6,,
{8}5,5h[8:3],,,4,4h[8:3],,,
{8}3,3h[8:3],,,2,2-7[8:1],2,,
{8}6,6h[8:3],,,7,7h[8:3],,,
{8}8,8h[8:3],,,1,1-4[8:1],1,,
{8}3,3h[8:3],,,5,5h[8:3],,,
{8}7,,1,8,1-5[8:1],,,,
{8}3,3,2,3,4,4,5,4,
{8}2,2,1,2,8,7,6b,,
{8}4,4,5,4,3,3,2,3,
{8}5,5,6,5,7,8,1b,,
{16}4,,4,3,5,,5,,6,,7,,8,,1,,
{16}3,,3,4,2,,2,,1,,8,,7b,,,,
{16}2,,2,1,3,,4,,5,,5,6,4,,3,,
{8}2^7[8:1],7^4[8:1],,,,,3b,,
{8}6,5,6,7,6,5,6,7,
{8}6,5,6,7,7/6,5,6/7,8,
{8}1,2,1,8,1,2,1,8,
{8}1,2,1,8,1/8,2,8/1,3,
{8}2,3,2,1,2,3,2,1,
{8}2,3,2,1,3/2,1,3/2,4,
{8}5,6,5,4,5,6,5,4,
{8}5,6,5,4,4/5,6,5/4,7,
{8}6/7,5,6/7,8,7/6,5,6/7,8,
{8}7b/6b,5,7/6,8,7,7,1,1,
{8}1/8,2,8/1,7,8/1,2,8/1,7,
{8}1b/8b,2,8/1,7,1,1,4,4,
{8}2/3,4,2/3,1,2/3,4,2/3,1,
{8}2/3,4,3/2,1,6,6,3,3,
{8}4/5,3,4/5,6,4/5,3,4/5,6,
{8}4/5,3,4/5,6,7,8,1,2,
{8}3-7[4:1],,,,,,1,8,
{16}7,,6,,,,,,2,3,2,3,2b,,,,
{16}5,4,5,4,5b,,,,,,8/7,,8/7,,,,
{4},6^1[4:1],,,
{16}5,,5,4,6,,6,,2,,2,3,1,,1,,
{8}1,8,7,6,5h[4:1],,6,,
{16}3,,3,2,4,,3,,4,,4,5,3,,4,,
{8}6,7,8,1,2h[4:1],,1,,
{16}6,,6,7,5,,5,,1,,1,8,2,,2,,
{8}8,7,6,5,4-8[8:1],,,,
{16}1,,1,8,2,,1,,6,,6,7,5,,6,,
{8}7,8,1,2,3-7[8:1],,,,
{16}6,,6,7,5,,5,,2,,2,3,1,,1,,
{8}3,4,5,6,7h[4:1],,6,,
{2}8-4[8:1],7-3[8:1],
{4}1-4[8:1],6-3[8:1],5-8[8:1],2b,
{8}2^7[4:1],,7^4[4:1],,4,3,2,1,
{16}8,,7,,6,,6,7,6,,5,,4/5,,,,
{8}5^8[4:1],,8^3[4:1],,3,4,5,6,
{16}7,,8,,1,,1,8,1h[4:1],,,,2,,,,
{8}4^1[4:1],,1^6[4:1],,6,5,4,3,
{16}2,,1,,8,,6,7,6,,5,,5/4,,,,
{8}3^6[4:1],,6^1[4:1],,1,2,3,4,
{16}5,,6,,7,,1,8,1h[4:1],,,,2b,,,,
{16}5-8[8:1],,,,1,,,,8,,2,1,2,,2,,
{16}3,,4,,5,,5,6,5-1[8:1],,,,2b,,,,
{16}2-7[8:1],,,,6,,,,7,,5,6,5,,5,,
{16}4,,3,,2,,2,1,2-6[8:1],,,,3b,,,,
{16}1-4[8:1],,,,2,,,,3,,2,1,2,,8,,
{16}7,,6,,5,,5,6,5-8[8:1],,,,6b,,,,
{16}6-3[8:1],,,,5,,,,4,,5,6,5,,7,,
{16}8,,1,,2,,2,1,2-7[8:1],,,,5b,,,,
{16}3,,4,2,3,,1,,2,,3,,4-8[8:1],,,,
{4}3-7[8:1],4-1[8:1],3-6[8:1],,
{16}7,,8,6,7,,5,,6,,7,,8-4[8:1],,,,
{4}7-3[8:1],8-5[8:1],7-2[8:1],,
{16}2,,1,3,2,,4,,3,,2,,1-5[8:1],,,,
{4}2-6[8:1],1-4[8:1],2-7[8:1],,
{16}5,,6,4,5,,3,,4,,5,,6-2[8:1],,,,
{4}5-1[8:1],6-3[8:1],5-8[8:1],,
{16}1,,1,8,2,,2,,3,,3,2,4-8[8:1],,4,,
{8}3-7[8:1],3,4-1[8:1],4,3-6[8:1],3,,,
{16}5,,5,7,6,,6,,7,,7,1,8-4[8:1],,8,,
{8}7-3[8:1],7,8-5[8:1],8,7-2[8:1],7,,,
{16}4,,4,2,3,,3,,2,,2,8,1-5[8:1],,1,,
{8}2-6[8:1],2,1-4[8:1],1,2-7[8:1],2,,,
{16}3,,3,5,4,,4,,5,,5,7,6-2[8:1],,6,,
{8}5-1[8:1],5,6-3[8:1],6,5-8[4:1],5,8^3[4:1],,
{2}3^6[4:1],,
E
